انقر هنا لمشاهدة النسخة الكاملة للصفحة

تورنت - بيبا بيغ (Peppa Pig) حلقات متفرقة من المواسم (2 و 3 و 4) 720p

حلقات الحجم : 4.08 GB التراكر: داخلي المتصلين : 0,1  اكتمل ( 28 ) 25/08/2018 تحميل التورنت

جميع حلقات بيبا بيغ المتوفرة على نيتفلكس مدبلجة للعربية


 1 arabp2p.com



Code
General

Format                         : MPEG-4
Format profile                 : Base Media
Codec ID                       : isom (isom/iso2/avc1/mp41)
File size                      : 174 MiB
Duration                       : 18 min 44 s
Overall bit rate               : 1 298 kb/s
Writing application            : Lavf58.12.100

Video
ID                             : 1
Format                         : AVC
Format/Info                    : Advanced Video Codec
Format profile                 : Main@L3.1
Format settings, CABAC         : Yes
Format settings, RefFrames     : 3 frames
Codec ID                       : avc1
Codec ID/Info                  : Advanced Video Coding
Duration                       : 18 min 44 s
Source duration                : 4 min 25 s
Bit rate                       : 1 197 kb/s
Width                          : 1 280 pixels
Height                         : 720 pixels
Display aspect ratio           : 16:9
Frame rate mode                : Constant
Frame rate                     : 25.000 FPS
Color space                    : YUV
Chroma subsampling             : 4:2:0
Bit depth                      : 8 bits
Scan type                      : Progressive
Bits/(Pixel*Frame)             : 0.052
Stream size                    : 160 MiB (92%)
Source stream size             : 160 MiB (92%)
mdhd_Duration                  : 1124040

Audio
ID                             : 2
Format                         : AAC
Format/Info                    : Advanced Audio Codec
Format profile                 : HE-AAC / LC
Codec ID                       : 40
Duration                       : 18 min 44 s
Bit rate mode                  : Constant
Bit rate                       : 96.0 kb/s
Channel(s)                     : 2 channels
Channel positions              : Front: L R
Sampling rate                  : 48.0 kHz / 24.0 kHz
Frame rate                     : 23.438 FPS (1024 SPF)
Compression mode               : Lossy
Stream size                    : 12.9 MiB (7%)
Default                        : Yes
Alternate group                : 1




 2 arabp2p.com
 3 arabp2p.com
 4 arabp2p.com
 5 arabp2p.com
 6 arabp2p.com
 7 arabp2p.com
 8 arabp2p.com
 9 arabp2p.com
 10 arabp2p.com
 11 arabp2p.com

الملفات ذات العلاقة بـ ( بيبا بيغ (Peppa Pig) حلقات متفرقة من المواسم (2 و 3 و 4) 720p )
جانكي الصغير - بضع حلقات - تسجيل 1 0 3.61 GB
غامبول مدبلج [576p] [TS] [تسجيلي][CN Arabia][حلقات جديدة] 4 1 14.04 GB
حلقات جديدة من المسلسل المحبوب لدى الاطفال بايبي لوني تيونز 3 1 2.92 GB
الرغيف العجيب (1988) Sore Ike! Anpanman [مدبلج][6 حلقات][576p] 2 0 1.13 GB
(20 إلى 50 ) تكملة حلقات افلام كرتون Kate and Mim-Mim 1 0 7.41 GB

الرئيسية - قائمة ملفات التورنت - فيسبوك