انقر هنا لمشاهدة النسخة الكاملة للصفحة

تورنت - (حكايات كرتون قصيرة منوعة) من قناة جيم - 1080p

حلقات الحجم : 1.70 GB التراكر: داخلي المتصلين : 2,15  اكتمل ( 27 ) 07/11/2018 تحميل التورنت

كرتون منوع وحكايات مختلفة قصيرة من قناة جيم للأطفال, الجوده متوسطة

العناوين

الفايكنغ الصغير

الطاقم الخارق

مُفاجآت الشتاء

بيت للطائر

توزيع الصحف

أمير التوت

 1 arabp2p.com
 2 arabp2p.com
 3 arabp2p.com
 4 arabp2p.com
 5 arabp2p.com
 6 arabp2p.com
 7 arabp2p.com
 8 arabp2p.com
 9 arabp2p.com

هذا العمل برعاية الأخ ReBacK يعطيه ألف عافية

وشكر خاص للأخ هرهور على المساعدة


..................................................


Format                         : MPEG-4
Format profile                 : Base Media
Codec ID                       : isom (isom/iso2/avc1/mp41)
File size                      : 1.70 GiB
Duration                       : 1 h 10 min
Overall bit rate               : 3 433 kb/s
Writing application            : Lavf56.25.101

Video
ID                             : 1
Format                         : AVC
Format/Info                    : Advanced Video Codec
Format profile                 : High@L4.2
Format settings                : CABAC / 4 Ref Frames
Format settings, CABAC         : Yes
Format settings, ReFrames      : 4 frames
Codec ID                       : avc1
Codec ID/Info                  : Advanced Video Coding
Duration                       : 1 h 10 min
Bit rate                       : 3 297 kb/s
Width                          : 1 920 pixels
Height                         : 1 080 pixels
Display aspect ratio           : 16:9
Frame rate mode                : Variable
Frame rate                     : 60.000 FPS
Minimum frame rate             : 30.224 FPS
Maximum frame rate             : 60.448 FPS
Original frame rate            : 60.449 FPS
Color space                    : YUV
Chroma subsampling             : 4:2:0
Bit depth                      : 8 bits
Scan type                      : Progressive
Bits/(Pixel*Frame)             : 0.027
Stream size                    : 1.63 GiB (96%)
               : x264 core 142 r2389 956c8d8

Audio
ID                             : 2
Format                         : AC-3
Format/Info                    : Audio Coding 3
Commercial name                : Dolby Digital
Codec ID                       : ac-3
Duration                       : 1 h 10 min
Bit rate mode                  : Constant
Bit rate                       : 128 kb/s
Channel(s)                     : 2 channels
Channel layout                 : L R
Sampling rate                  : 48.0 kHz
Frame rate                     : 31.250 FPS (1536 SPF)
Bit depth                      : 16 bits
Compression mode               : Lossy
Stream size                    : 64.9 MiB (4%)
Language                       : unk
Service kind                   : Complete Main
Default                        : Yes
Alternate group                : 1

الملفات ذات العلاقة بـ ( (حكايات كرتون قصيرة منوعة) من قناة جيم - 1080p )
مجموعة كرتون MBC3 غير مكتمل 1 4 145.00 GB
مجموعة كرتون Art Teenz غير مكتمل 1 2 168.33 GB
مجموعة كرتون Space Power غير مكتمل 1 1 31.27 GB
كرتون كركور وحذاء السعادة حصريا بجودة عالية 4 0 2.56 GB
مجموعة كرتون Space Toon غير مكتمل PART 3 2 0 97.34 GB
vipkingosaa1يعطيك العافية
ماريايسلموو ايديك أخوي الله يعطيك العافية
حكة حكةشكراً جزيلاً لك يا بطل
BuKhalilيعطيك العافية واستمر
التميمييعطيك العافية
KanekiD2Mيعطيك العافية اخووووي
هرهورشكرا لسرعة الاستجابة بالرفع كتورنت يعطيك ألف عافية

الرئيسية - قائمة ملفات التورنت - فيسبوك