أغاني عيد الميلاد من نيتفلكس

354.40 MB |
التحميل : 88 |
التراكر : داخلي |
4 / 0 ( 59) |
24/08/2018

JaberKhalil@arabp2p.com
الرتبه Active Member
المرفوعات: 18
النقاط: 40.55
تاريخ التسجيل: 05/02/2017
JaberKhalil غير متصل




مجموعة من أغاني عيد الميلاد (birthday) من شخصيات نيتفلكس المفضلة!
يوجد بعض الأغاني الغير المدبلجة فلم أضيفها.

أغاني عيد الميلاد من نيتفلكس تحميل تورنت 1 arabp2p.com


Code
General
Complete name                  : LEGO - Friends - Happy Birthday to You!.mp4
Format                         : MPEG-4
Format profile                 : Base Media
Codec ID                       : isom (isom/iso2/avc1/mp41)
File size                      : 24.9 MiB
Duration                       : 1 min 37 s
Overall bit rate               : 2 150 kb/s
Writing application            : Lavf58.12.100

Video
ID                             : 1
Format                         : AVC
Format/Info                    : Advanced Video Codec
Format profile                 : Main@L3.1
Format settings, CABAC         : Yes
Format settings, RefFrames     : 3 frames
Codec ID                       : avc1
Codec ID/Info                  : Advanced Video Coding
Duration                       : 1 min 37 s
Bit rate                       : 2 049 kb/s
Width                          : 1 280 pixels
Height                         : 720 pixels
Display aspect ratio           : 16:9
Frame rate mode                : Constant
Frame rate                     : 23.976 FPS
Color space                    : YUV
Chroma subsampling             : 4:2:0
Bit depth                      : 8 bits
Scan type                      : Progressive
Bits/(Pixel*Frame)             : 0.093
Stream size                    : 23.7 MiB (95%)

Audio
ID                             : 2
Format                         : AAC
Format/Info                    : Advanced Audio Codec
Format profile                 : HE-AAC / LC
Codec ID                       : 40
Duration                       : 1 min 37 s
Bit rate mode                  : Constant
Bit rate                       : 96.0 kb/s
Channel(s)                     : 2 channels
Channel positions              : Front: L R
Sampling rate                  : 48.0 kHz / 24.0 kHz
Frame rate                     : 23.438 FPS (1024 SPF)
Compression mode               : Lossy
Stream size                    : 1.11 MiB (4%)
Default                        : Yes
Alternate group                : 1




أغاني عيد الميلاد من نيتفلكس تحميل تورنت 2 arabp2p.com
أغاني عيد الميلاد من نيتفلكس تحميل تورنت 3 arabp2p.com
أغاني عيد الميلاد من نيتفلكس تحميل تورنت 4 arabp2p.com
أغاني عيد الميلاد من نيتفلكس تحميل تورنت 5 arabp2p.com
أغاني عيد الميلاد من نيتفلكس تحميل تورنت 6 arabp2p.com
أغاني عيد الميلاد من نيتفلكس تحميل تورنت 7 arabp2p.com
أغاني عيد الميلاد من نيتفلكس تحميل تورنت 8 arabp2p.com
أغاني عيد الميلاد من نيتفلكس تحميل تورنت 9 arabp2p.com
أغاني عيد الميلاد من نيتفلكس تحميل تورنت 10 arabp2p.com
أغاني عيد الميلاد من نيتفلكس تحميل تورنت 11 arabp2p.com
أغاني عيد الميلاد من نيتفلكس تحميل تورنت 12 arabp2p.com
23 files