بيبا بيغ (Peppa Pig) حلقات متفرقة من المواسم (2 و 3 و 4) 720p

4.08 GB |
التحميل : 54 |
التراكر : داخلي |
1 / 0 ( 28) |
25/08/2018

JaberKhalil@arabp2p.com
الرتبه Active Member
المرفوعات: 18
النقاط: 774.05
تاريخ التسجيل: 05/02/2017
JaberKhalil غير متصل




جميع حلقات بيبا بيغ المتوفرة على نيتفلكس مدبلجة للعربية


بيبا بيغ (Peppa Pig) حلقات متفرقة من المواسم (2 و 3 و 4) 720p تحميل تورنت 1 arabp2p.com



Code
General

Format                         : MPEG-4
Format profile                 : Base Media
Codec ID                       : isom (isom/iso2/avc1/mp41)
File size                      : 174 MiB
Duration                       : 18 min 44 s
Overall bit rate               : 1 298 kb/s
Writing application            : Lavf58.12.100

Video
ID                             : 1
Format                         : AVC
Format/Info                    : Advanced Video Codec
Format profile                 : Main@L3.1
Format settings, CABAC         : Yes
Format settings, RefFrames     : 3 frames
Codec ID                       : avc1
Codec ID/Info                  : Advanced Video Coding
Duration                       : 18 min 44 s
Source duration                : 4 min 25 s
Bit rate                       : 1 197 kb/s
Width                          : 1 280 pixels
Height                         : 720 pixels
Display aspect ratio           : 16:9
Frame rate mode                : Constant
Frame rate                     : 25.000 FPS
Color space                    : YUV
Chroma subsampling             : 4:2:0
Bit depth                      : 8 bits
Scan type                      : Progressive
Bits/(Pixel*Frame)             : 0.052
Stream size                    : 160 MiB (92%)
Source stream size             : 160 MiB (92%)
mdhd_Duration                  : 1124040

Audio
ID                             : 2
Format                         : AAC
Format/Info                    : Advanced Audio Codec
Format profile                 : HE-AAC / LC
Codec ID                       : 40
Duration                       : 18 min 44 s
Bit rate mode                  : Constant
Bit rate                       : 96.0 kb/s
Channel(s)                     : 2 channels
Channel positions              : Front: L R
Sampling rate                  : 48.0 kHz / 24.0 kHz
Frame rate                     : 23.438 FPS (1024 SPF)
Compression mode               : Lossy
Stream size                    : 12.9 MiB (7%)
Default                        : Yes
Alternate group                : 1




بيبا بيغ (Peppa Pig) حلقات متفرقة من المواسم (2 و 3 و 4) 720p تحميل تورنت 2 arabp2p.com
بيبا بيغ (Peppa Pig) حلقات متفرقة من المواسم (2 و 3 و 4) 720p تحميل تورنت 3 arabp2p.com
بيبا بيغ (Peppa Pig) حلقات متفرقة من المواسم (2 و 3 و 4) 720p تحميل تورنت 4 arabp2p.com
بيبا بيغ (Peppa Pig) حلقات متفرقة من المواسم (2 و 3 و 4) 720p تحميل تورنت 5 arabp2p.com
بيبا بيغ (Peppa Pig) حلقات متفرقة من المواسم (2 و 3 و 4) 720p تحميل تورنت 6 arabp2p.com
بيبا بيغ (Peppa Pig) حلقات متفرقة من المواسم (2 و 3 و 4) 720p تحميل تورنت 7 arabp2p.com
بيبا بيغ (Peppa Pig) حلقات متفرقة من المواسم (2 و 3 و 4) 720p تحميل تورنت 8 arabp2p.com
بيبا بيغ (Peppa Pig) حلقات متفرقة من المواسم (2 و 3 و 4) 720p تحميل تورنت 9 arabp2p.com
بيبا بيغ (Peppa Pig) حلقات متفرقة من المواسم (2 و 3 و 4) 720p تحميل تورنت 10 arabp2p.com
بيبا بيغ (Peppa Pig) حلقات متفرقة من المواسم (2 و 3 و 4) 720p تحميل تورنت 11 arabp2p.com
37 files